+ Reply to Thread
Results 1 to 2 of 2
  1. #1
    Senior Member
    Join Date
    Feb 2013
    Posts
    169
    Thanks
    0
    Thanked 117 Times in 97 Posts

    Lightbulb [1080p] [Full-HD] Riddick: Rule The Dark (2013) : ริดดิค 3 [เสียง:ไทย 5.1,อังกฤษ DTS - บรรยาย:ไทย,อังกฤษ]




    Riddick.2013.Theatrical.Cut.1080p.Bluray.DTS.phum5 1.mkv
    Format : Matroska
    Format version : Version 2
    File size : 11.6 GiB
    Duration : 1h 58mn
    Overall bit rate : 14.0 Mbps
    Movie name : Riddick.2013.Theatrical.Cut.1080p.Bluray.DTS.phum5 1
    Encoded date : UTC 2014-01-15 07:51:10
    Writing application : mkvmerge v5.5.0 ('Healer') built on Apr 6 2012 21:43:24
    Writing library : libebml v1.2.3 + libmatroska v1.3.0
    Video #1
    ID : 1
    Format : AVC
    Format/Info : Advanced Video Codec
    Format profile : [email protected]
    Format settings, CABAC : Yes
    Format settings, ReFrames : 5 frames
    Muxing mode : Header stripping
    Codec ID : V_MPEG4/ISO/AVC
    Duration : 1h 58mn
    Bit rate : 11.6 Mbps
    Width : 1 920 pixels
    Height : 800 pixels
    Display aspect ratio : 2.40:1
    Frame rate : 23.976 fps
    Color space : YUV
    Chroma subsampling : 4:2:0
    Bit depth : 8 bits
    Scan type : Progressive
    Bits/(Pixel*Frame) : 0.316
    Stream size : 9.41 GiB (81%)
    Title : @@Modify-phum51@@
    Writing library : x264 core 138 r2356 a1d3d17
    Encoding settings : cabac=1 / ref=5 / deblock=1:-3:-3 / analyse=0x3:0x113 / me=umh / subme=10 / psy=1 / psy_rd=1.00:0.05 / mixed_ref=1 / me_range=32 / chroma_me=1 / trellis=2 / 8x8dct=1 / cqm=0 / deadzone=21,11 / fast_pskip=0 / chroma_qp_offset=-2 / threads=18 / lookahead_threads=1 / sliced_threads=0 / nr=0 / decimate=1 / interlaced=0 / bluray_compat=0 / constrained_intra=0 / bframes=5 / b_pyramid=2 / b_adapt=2 / b_bias=0 / direct=3 / weightb=1 / open_gop=0 / weightp=2 / keyint=250 / keyint_min=23 / scenecut=40 / intra_refresh=0 / rc=2pass / mbtree=0 / bitrate=11624 / ratetol=1.0 / qcomp=0.70 / qpmin=0 / qpmax=69 / qpstep=4 / cplxblur=20.0 / qblur=0.5 / ip_ratio=1.40 / pb_ratio=1.30 / aq=2:0.90
    Language : English
    Default : Yes
    Forced : No
    Audio #2
    ID : 2
    Format : DTS
    Format/Info : Digital Theater Systems
    Muxing mode : Header stripping
    Codec ID : A_DTS
    Duration : 1h 58mn
    Bit rate mode : Constant
    Bit rate : 1 510 Kbps
    Channel(s) : 6 channels
    Channel positions : Front: L C R, Side: L R, LFE
    Sampling rate : 48.0 KHz
    Bit depth : 24 bits
    Compression mode : Lossy
    Stream size : 1.25 GiB (11%)
    Title : DTS by phum51
    Language : English
    Default : No
    Forced : No
    Audio #3
    ID : 3
    Format : AC-3
    Format/Info : Audio Coding 3
    Mode extension : CM (complete main)
    Format settings, Endianness : Big
    Muxing mode : Header stripping
    Codec ID : A_AC3
    Duration : 1h 58mn
    Bit rate mode : Constant
    Bit rate : 448 Kbps
    Channel(s) : 6 channels
    Channel positions : Front: L C R, Side: L R, LFE
    Sampling rate : 48.0 KHz
    Bit depth : 16 bits
    Compression mode : Lossy
    Stream size : 380 MiB (3%)
    Title : AC3 5.1 by phum51
    Language : English
    Default : No
    Forced : No
    Audio #4
    ID : 4
    Format : AC-3
    Format/Info : Audio Coding 3
    Mode extension : CM (complete main)
    Format settings, Endianness : Big
    Muxing mode : Header stripping
    Codec ID : A_AC3
    Duration : 1h 58mn
    Bit rate mode : Constant
    Bit rate : 384 Kbps
    Channel(s) : 6 channels
    Channel positions : Front: L C R, Side: L R, LFE
    Sampling rate : 48.0 KHz
    Bit depth : 16 bits
    Compression mode : Lossy
    Delay relative to video : 1s 8ms
    Stream size : 326 MiB (3%)
    Title : AC3 5.1 by phum51
    Language : Thai
    Default : Yes
    Forced : No
    Text #5
    ID : 5
    Format : UTF-8
    Codec ID : S_TEXT/UTF8
    Codec ID/Info : UTF-8 Plain Text
    Title : by phum51
    Language : English
    Default : No
    Forced : No
    Text #6
    ID : 6
    Format : VobSub
    Muxing mode : zlib
    Codec ID : S_VOBSUB
    Codec ID/Info : The same subtitle format used on DVDs
    Title : by phum51
    Language : Thai
    Default : Yes
    Forced : Yes
    Text #7
    ID : 7
    Format : VobSub
    Muxing mode : zlib
    Codec ID : S_VOBSUB
    Codec ID/Info : The same subtitle format used on DVDs
    Title : 1080p by phum51
    Language : Thai
    Default : No
    Forced : Yes
    Text #8
    ID : 8
    Format : PGS
    Muxing mode : zlib
    Codec ID : S_HDMV/PGS
    Codec ID/Info : The same subtitle format used on BDs/HD-DVDs
    Title : PGS by phum51
    Language : Thai
    Default : No
    Forced : Yes





    เรื่องย่อ

    ริดดิค ถูกทิ้งให้ตายบนดาวร้างเต็มไปด้วยทะเลทราย ซึ่งเป็นที่ที่เขาได้พบว่าตัวเอง ต้องต่อสู้กับฝูงเอเลี่ยนอสูร นักล่าที่ดุร้ายกว่ามนุษย์หน้าไหนที่เขาเคยปะทะมา ริดดิคจำเป็นต้องใช้สัญชาตญาณเพื่อเรียกให้บรรดานักล ่าค่าหัวที่ริดดิคหลบหนีมาตลอดซึ่งหวังจะล่าเขาให้มา ยังดาวดวงนี้ เพราะมันเป็นความหวังเดียวที่ริดดิคจะใช้หนีออกไปให้ พ้นจากดาวมฤตยู ทว่ากลุ่มนักล่าค่าหัวที่มาถึงคือพวกที่โหดร้ายและเป ็นอันตรายที่สุดเท่าที่ริดดิคเคยเจอ ซึ่งหนึ่งในผู้เดินทางมาครั้งนี้คือกัปตันผู้มีความแ ค้นในใจกับริดดิคโดยเฉพาะ




    FILECONDO

    DOWNLOAD

    มีอีกหลายเรื่อง สนใจ คลิกเลย


  2. #2
    Senior Member
    Join Date
    Jul 2012
    Posts
    206
    Thanks
    0
    Thanked 10 Times in 3 Posts
    thankk youuu

+ Reply to Thread

Posting Permissions

  • You may not post new threads
  • You may not post replies
  • You may not post attachments
  • You may not edit your posts