+ Reply to Thread
Results 1 to 5 of 5
  1. #1
    Administrators Duckload.us's Avatar
    Join Date
    Dec 2010
    Posts
    25,554
    Thanks
    7
    Thanked 40,092 Times in 16,289 Posts

    Lightbulb [สารคดี]-[3D-SBS]-IMAX Under The SEA 3D (2010)/โลก3มิติใต้ท้องทะเล [พากย์:Thai 5.1 อังกฤษ dts 5.1]][SUB:None]-MiniBD.H.264.1080p.



    Under The SEA 3D

    ร่วมกันเดินทางไปภายใต้ท้องทะเลที่สุดแสนสวยงามพบกับ สีสันแห่งโลกใต้ท้อง ทะเลแล้ววิถีการดำรงค์ชีวิตของสัตว์ทะเลที่สวยงามต่า งๆเป็นภาพ3Dที่จะทำให้ คุณรู้สึกผ่อนคลายเนื่องจากความสวยงามของโลกแห่งใต้ท ะเล เสียงดนตรีประกอบที่สุดยอด

    General
    Unique ID : 218880190737063220189862181823535622100 (0xA4AACA9665877D0F85siambit.orgE628D8F7A7D4)
    Complete name : C:\IMAX.Under.The.SEA.3D.SBS.2010.1080p.TH_2.mkv
    Format : Matroska
    Format version : Version 2
    File size : 6.21 GiB
    Duration : 40mn 52s
    Overall bit rate : 21.8 Mbps
    Encoded date : UTC 2010-11-22 03:50:07
    Writing application : mkvmerge v2.8.0 ( The Tree ) built on May 9 2009 18:02:06
    Writing library : libebml v0.7.7 + libmatroska v0.8.1
    Video #1
    ID : 1
    Format : AVC
    Format/Info : Advanced Video Codec
    Format profile : [email protected]
    Format settings, CABAC : Yes
    Format settings, ReFrames : 4 frames
    Codec ID : V_MPEG4/ISO/AVC
    Duration : 40mn 52s
    Bit rate : 19.4 Mbps
    Width : 1 920 pixels
    Height : 1 080 pixels
    Display aspect ratio : 16:9
    Frame rate : 23.976 fps
    Color space : YUV
    Chroma subsampling : 4:2:0
    Bit depth : 8 bits
    Scan type : Progressive
    Bits/(Pixel*Frame) : 0.389
    Stream size : 5.53 GiB (89%)
    Title : IMAX Under the sea 3D-SBS By Amphol
    Writing library : x264 core 105 r1724 b02df7b
    Encoding settings : cabac=1 / ref=4 / deblock=1:-1:-1 / analyse=0x3:0x113 / me=umh / subme=7 / psy=1 / psy_rd=1.00:0.15 / mixed_ref=1 / me_range=16 / chroma_me=1 / trellis=1 / 8x8dct=1 / cqm=0 / deadzone=21,11 / fast_pskip=0 / chroma_qp_offset=-3 / threads=12 / sliced_threads=0 / nr=0 / decimate=1 / interlaced=0 / constrained_intra=0 / bframes=3 / b_pyramid=2 / b_adapt=1 / b_bias=0 / direct=3 / weightb=1 / open_gop=0 / weightp=2 / keyint=250 / keyint_min=23 / scenecut=40 / intra_refresh=0 / rc_lookahead=40 / rc=crf / mbtree=1 / crf=18.0 / qcomp=0.60 / qpmin=10 / qpmax=51 / qpstep=4 / ip_ratio=1.40 / aq=1:1.00
    Default : Yes
    Forced : No
    Audio #2
    ID : 2
    Format : AC-3
    Format/Info : Audio Coding 3
    Mode extension : CM (complete main)
    Codec ID : A_AC3
    Duration : 40mn 52s
    Bit rate mode : Constant
    Bit rate : 448 Kbps
    Channel(s) : 6 channels
    Channel positions : Front: L C R, Side: L R, LFE
    Sampling rate : 48.0 KHz
    Bit depth : 16 bits
    Compression mode : Lossy
    Stream size : 131 MiB (2%)
    Title : Thai
    Language : Thai
    Default : Yes
    Forced : No
    Audio #3
    ID : 3
    Format : DTS
    Format/Info : Digital Theater Systems
    Codec ID : A_DTS
    Duration : 40mn 52s
    Bit rate mode : Constant
    Bit rate : 1 510 Kbps
    Channel(s) : 6 channels
    Channel positions : Front: L C R, Side: L R, LFE
    Sampling rate : 48.0 KHz
    Bit depth : 24 bits
    Compression mode : Lossy
    Stream size : 441 MiB (7%)
    Title : Eng
    Language : English
    Default : No
    Forced : No



    credit k.gibraltar15

    http://www.filecondo.com/dl.php?f=Gc71b01vC9Sw

  2. The Following 2 Users Say Thank You to Duckload.us For This Useful Post:

    pntum (12-30-2013), PUNKROCK (12-29-2013)

  3. #2
    Senior Member
    Join Date
    Jun 2011
    Posts
    277
    Thanks
    44
    Thanked 0 Times in 0 Posts
    ภาพสวยมากๆเลยครับขอบคุณจากใจครับ

  4. #3
    Senior Member
    Join Date
    Aug 2012
    Posts
    135
    Thanks
    183
    Thanked 0 Times in 0 Posts
    ขอบคุณจากใจครับ

  5. #4
    Senior Member PUNKROCK's Avatar
    Join Date
    Jul 2011
    Posts
    522
    Thanks
    161
    Thanked 0 Times in 0 Posts
    .. ขอบพระคุณ ก็อวยพรให้ท่าน มีความสุข ความเจริญประสบความสำเร็จในชีวิตการงานและความรักและ ทุกๆด้านที่ได้ทำ เป็นกำลังใจให้เสมอครับ ขอบพระคุณอย่างสูงครับ ..
    PUNKROCK NEVERDIE

  6. #5
    Senior Member pntum's Avatar
    Join Date
    Dec 2012
    Posts
    176
    Thanks
    164
    Thanked 0 Times in 0 Posts

+ Reply to Thread

Posting Permissions

  • You may not post new threads
  • You may not post replies
  • You may not post attachments
  • You may not edit your posts