+ Reply to Thread
Results 1 to 1 of 1
  1. #1
    Senior Member
    Join Date
    Dec 2012
    Posts
    497
    Thanks
    0
    Thanked 283 Times in 170 Posts

    Arrow [ฝรั่ง]-[mini1080p]<มาแล้วใหม่ประจำสัปดาห์> Assault On Wall Street (2013) อัดแค้นถล่มวอลสตรีท [เสียงอังกฤษ- ไทย][บทบรรยายไทย - อังกฤษ][เสียงไทยบทบรรยายไทยดีวีดีมาสเตอร์][2.02GB One2Up & Filecondo]



    General
    Unique ID : 227076062342685702964233737671185796794 (0xAAD542417FB042A19325426079F80EBA)
    Complete name : M:@HDAssault.On.Wall.Street.2013.mini1080p.BluRay. x264-nusom.mkv
    Format : Matroska
    File size : 2.02 GiB
    Duration : 1h 38mn
    Overall bit rate : 2 916 Kbps
    Movie name : world
    Encoded date : UTC 2010-02-22 21:41:31
    Writing application : mkvmerge v5.9.0 ( On The Loose ) built on Dec 9 2012 15:37:01
    Writing library : libebml v1.3.0 + libmatroska v1.4.0

    Video
    ID : 1
    Format : AVC
    Format/Info : Advanced Video Codec
    Format profile : [email protected]
    Format settings, CABAC : Yes
    Format settings, ReFrames : 4 frames
    Codec ID : V_MPEG4/ISO/AVC
    Duration : 1h 38mn
    Bit rate : 1 997 Kbps
    Width : 1 920 pixels
    Height : 1 080 pixels
    Display aspect ratio : 16:9
    Frame rate : 23.976 fps
    Color space : YUV
    Chroma subsampling : 4:2:0
    Bit depth : 8 bits
    Scan type : Progressive
    Bits/(Pixel*Frame) : 0.040
    Stream size : 1.40 GiB (69%)
    Writing library : x264 core 132 r2 76a5c3a
    Encoding settings : cabac=1 / ref=4 / deblock=1:-1:-1 / analyse=0x3:0x133 / me=umh / subme=9 / psy=1 / psy_rd=1.00:0.15 / mixed_ref=1 / me_range=24 / chroma_me=1 / trellis=2 / 8x8dct=1 / cqm=0 / deadzone=21,11 / fast_pskip=0 / chroma_qp_offset=-3 / threads=36 / lookahead_threads=3 / sliced_threads=0 / nr=0 / decimate=1 / interlaced=0 / bluray_compat=0 / constrained_intra=0 / bframes=3 / b_pyramid=2 / b_adapt=2 / b_bias=0 / direct=3 / weightb=1 / open_gop=0 / weightp=2 / keyint=250 / keyint_min=23 / scenecut=40 / intra_refresh=0 / rc_lookahead=60 / rc=2pass / mbtree=1 / bitrate=1997 / ratetol=1.0 / qcomp=0.60 / qpmin=0 / qpmax=69 / qpstep=4 / cplxblur=20.0 / qblur=0.5 / vbv_maxrate=31250 / vbv_bufsize=31250 / nal_hrd=none / ip_ratio=1.40 / aq=1:1.00
    Color primaries : BT.709-5, BT.1361, IEC 61966-2-4, SMPTE RP177
    Matrix coefficients : BT.709-5, BT.1361, IEC 61966-2-4 709, SMPTE RP177

    Audio #1
    ID : 2
    Format : AC-3
    Format/Info : Audio Coding 3
    Mode extension : CM (complete main)
    Codec ID : A_AC3
    Duration : 1h 38mn
    Bit rate mode : Constant
    Bit rate : 448 Kbps
    Channel(s) : 6 channels
    Channel positions : Front: L C R, Side: L R, LFE
    Sampling rate : 48.0 KHz
    Bit depth : 16 bits
    Compression mode : Lossy
    Stream size : 317 MiB (15%)

    Audio #2
    ID : 3
    Format : AC-3
    Format/Info : Audio Coding 3
    Mode extension : CM (complete main)
    Codec ID : A_AC3
    Duration : 1h 38mn
    Bit rate mode : Constant
    Bit rate : 384 Kbps
    Channel(s) : 6 channels
    Channel positions : Front: L C R, Side: L R, LFE
    Sampling rate : 48.0 KHz
    Bit depth : 16 bits
    Compression mode : Lossy
    Stream size : 272 MiB (13%)
    Title : Master
    Language : Thai

    Text #1
    ID : 4
    Format : VobSub
    Codec ID : S_VOBSUB
    Codec ID/Info : The same subtitle format used on DVDs
    Title : A480
    Language : English

    Text #2
    ID : 5
    Format : VobSub
    Codec ID : S_VOBSUB
    Codec ID/Info : The same subtitle format used on DVDs
    Title : F480
    Language : English

    Text #3
    ID : 6
    Format : UTF-8
    Codec ID : S_TEXT/UTF8
    Codec ID/Info : UTF-8 Plain Text

    Text #4
    ID : 7
    Format : VobSub
    Codec ID : S_VOBSUB
    Codec ID/Info : The same subtitle format used on DVDs
    Title : A1080
    Language : Thai

    Text #5
    ID : 8
    Format : PGS
    Codec ID : S_HDMV/PGS
    Codec ID/Info : The same subtitle format used on BDs/HD-DVDs
    Title : PGS
    Language : Thai

    Text #6
    ID : 9
    Format : PGS
    Codec ID : S_HDMV/PGS
    Codec ID/Info : The same subtitle format used on BDs/HD-DVDs
    Title : PGS
    Language : Thai

    วอลสตรีท เงินทำให้คุณเป็นพระเจ้าได้ และก็ทำให้คุณสูญเสียแม้แต่ตัวตนของตัวเองได้เหมือนก ันทุกวันที่นี่มีเงินเข้าออกเป็น พัน พัน ล้าน และมีคนนับล้านที่ต้องสูญเสียทุกอย่างในชีวิตเพราะเง ินพวกนี้ จิม คือหนึ่งในนักลงทุนมือสะอาด จนวันหนึ่งเมื่อภรรยาเขาป่วย จิม ต้องการใช้เงินที่สะสมไว้ แต่เงินของเขากลับต้องสูญไปกับวิกฤติตลาดหุ้นล้ม จิมจึงใช้วิธีทวงคืนความยุติธรรมแบบตาต่อตา ฟันต่อฟัน เขาไม่ได้ต้องการแค่การปล้นแบงค์ แต่เขาต้องการจะปิดทั้งวอลสตรีท ด้วยการถล่มมันให้ราบเป็นผุยผง





    สำหรับคนที่ไม่สามารถโหลดไฟล์จาก One2Up ได้ (คลิกเข้าไปแล้วเป็นวีดีโอเล่นให้เลย) ทำตามด้านล่างนี้นะครับ -_-!


    One2Up เปลี่ยนชื่อตามลิงค์ที่โหลด แล้วรวมไฟล์ ตามวิธีนี้คลิก
    Part ละ 1024MB
    AssaultOnWallStreet.001
    AssaultOnWallStreet.002
    AssaultOnWallStreet.003

    Filecondo
    AssaultOnWallStreet

    ถูกใจกรุณาคอมเม้นด้วยนะครับเพื่อนๆ ที่ไม่ได้ดูจะได้เห็นกันถ้วนหน้า ขอบคุณครับ
    Last edited by flickle; 10-03-2013 at 01:05 PM. Reason: change title
    โหลดหนังคุณภาพ เรื่องอื่นคลิกรูปด้านล่างนี้


+ Reply to Thread

Posting Permissions

  • You may not post new threads
  • You may not post replies
  • You may not post attachments
  • You may not edit your posts