+ Reply to Thread
Results 1 to 3 of 3
  1. #1
    Administrators Duckload.us's Avatar
    Join Date
    Dec 2010
    Posts
    25,602
    Thanks
    7
    Thanked 40,205 Times in 16,323 Posts

    Lightbulb [ฝรั่ง]-James Bond 007 : Quantum of Solace (2008) / พยัคฆ์ร้ายทวงแค้นระห่ําโลก [Remux.DTS.1080p] [Modified]-[เสียงอังกฤษ DTS+พากย์ไทย 5.1+อังกฤษ 5.1]-[บรรยายไทย+อังกฤษ]






    เนื้อเรื่องในภาคนี้จะต่อจากภาคที่แล้ว (Casino Royale) หลังจากที่เจมส์ บอนด์ได้สูญเสียเวสเปอร์ ลินด์ รักแรกของเขา เหตุการณ์ในครั้งนั้นทำให้เขากลายเป็นผู้ชายที่ไร้หั วใจ ด้วยความมุ่งมั่นที่จะแก้แค้นแทนเวสเปอร์ บอนด์จึงใช้ภารกิจเป็นฉากบังหน้า ในการล้างแค้นส่วนตัว ระหว่างที่บอนด์ และเอ็ม ได้สอบสวนมิสเตอร์ไวท์ ซึ่งได้รู้ว่า องค์กรที่แบล็คเมล์เวสเปอร์นั้นซับซ้อนและอันตรายเกิ นกว่าที่ใครจะคาดคิดได้

    หน่วยข่าวกรองได้ตามรอยของผู้ทรยศในหน่วย MI6 ไปยังบัญชีธนาคารในไฮติ ที่นั่นบอนด์ได้พบกับคามิลล์ หญิงสาวผู้มีความแค้นสุมใจเช่นเดียวกัน บอนด์และคามิลล์ต่างก็ต้องการกำจัดคนๆ เดียวกัน นั่นก็คือ โดมินิค กรีน นักธุรกิจแห่งองค์กรควอนตัม ซึ่งเป็นตัวหมากสำคัญในองค์กรลึกลับแห่งนี้

    บอนด์ได้พบว่า กรีนสมคบคิดวางแผนที่จะควบคุมแหล่งทรัพยากรที่สำคัญท ี่สุดของโลกแห่งหนึ่ง โดยทำสัญญาไว้กับนายพลเมดราโน กรีนสัญญาว่าจะล้มล้างรัฐบาลที่บริหารงานในโบลิเวีย และทำให้ท่านนายพลได้บริหารประเทศเพื่อแลกเปลี่ยนกับ ผืนดินอันว่างเปล่า สายลับ 007 จึงต้องหยุดแผนการชั่วร้ายนี้ให้ได้ ก่อนที่จะสายเกินไป




    Format : Matroska
    File size : 9.37 GiB
    Duration : 1h 46mn
    Overall bit rate : 12.6 Mbps
    Movie name : James.Bond.007.Quantum.of.Solace.1080p.BluRay.x264 - PORSC
    Encoded date : UTC 2012-08-11 03:06:05
    Writing application : mkvmerge v4.2.0 ( No Talking ) built on Jul 28 2010 18:38:23
    Writing library : libebml v1.0.0 + libmatroska v1.0.0

    Video
    ID : 1
    Format : AVC
    Format/Info : Advanced Video Codec
    Format profile : [email protected]
    Format settings , CABAC : Yes
    Format settings , ReFrames : 5 frames
    Muxing mode : Container profile=[email protected]
    Codec ID : V_MPEG4/ISO/AVC
    Duration : 1h 46mn
    Bit rate : 10.0 Mbps
    Nominal bit rate : 10.3 Mbps
    Width : 1 920 pixels
    Height : 800 pixels
    Display aspect ratio : 2.40:1
    Frame rate : 23.976 fps
    Resolution : 8 bits
    Colorimetry : 4:2:0
    Scan type : Progressive
    Bits/(Pixel*Frame) : 0.273
    Stream size : 7.44 GiB (79%)

    Audio #1
    ID : 2
    Format : AC-3
    Format/Info : Audio Coding 3
    Codec ID : A_AC3
    Duration : 1h 46mn
    Bit rate mode : Constant
    Bit rate : 384 Kbps
    Channel(s) : 6 channels
    Channel positions : Front: L C R , Side: L R , LFE
    Sampling rate : 48.0 KHz
    Video delay : 1s 0ms
    Stream size : 292 MiB (3%)
    Title : Thai DVD Master
    Language : Thai

    Audio #2
    ID : 3
    Format : DTS
    Format/Info : Digital Theater Systems
    Codec ID : A_DTS
    Duration : 1h 46mn
    Bit rate mode : Constant
    Bit rate : 1 510 Kbps
    Channel(s) : 6 channels
    Channel positions : Front: L C R , Side: L R , LFE
    Sampling rate : 48.0 KHz
    Resolution : 24 bits
    Stream size : 1.12 GiB (12%)
    Title : English DTS

    Audio #3
    ID : 4
    Format : AC-3
    Format/Info : Audio Coding 3
    Codec ID : A_AC3
    Duration : 1h 46mn
    Bit rate mode : Constant
    Bit rate : 448 Kbps
    Channel(s) : 6 channels
    Channel positions : Front: L C R , Side: L R , LFE
    Sampling rate : 48.0 KHz
    Stream size : 340 MiB (4%)
    Title : English AC3

    Text #1
    ID : 5
    Format : VobSub
    Codec ID : S_VOBSUB
    Codec ID/Info : The same subtitle format used on DVDs
    Title : Thai
    Language : Thai

    Text #2
    ID : 6
    Format : VobSub
    Codec ID : S_VOBSUB
    Codec ID/Info : The same subtitle format used on DVDs
    Title : Thai DVD Master
    Language : Thai

    Text #3
    ID : 7
    Format : VobSub
    Codec ID : S_VOBSUB
    Codec ID/Info : The same subtitle format used on DVDs
    Title : English DVD Master

    Text #4
    ID : 8
    Format : UTF-8
    Codec ID : S_TEXT/UTF8
    Codec ID/Info : UTF-8 Plain Text
    Title : English SRT


    ขอบคุณไฟล์ต้นฉบับจากสาวเจน NongZEZA~ ครับ









    http://www.filecondo.com/dl.php?f=81fc2d1t1eJ2

  2. The Following 4 Users Say Thank You to Duckload.us For This Useful Post:

    johnsider (01-05-2013), mta28 (05-28-2013), noi54 (01-09-2013), smakha (03-05-2014)

  3. #2
    Member
    Join Date
    Aug 2012
    Posts
    81
    Thanks
    91
    Thanked 0 Times in 0 Posts
    ขอบคุณครับ

  4. #3
    Senior Member
    Join Date
    Mar 2013
    Posts
    110
    Thanks
    0
    Thanked 0 Times in 0 Posts
    ขอบคุณครับ

+ Reply to Thread

Posting Permissions

  • You may not post new threads
  • You may not post replies
  • You may not post attachments
  • You may not edit your posts