General
Unique ID : 201094817092996145423247584781289378700 (0x974973F727DF9C928106E534AF67D38C)
Complete name : S:completeThe.Viral.Factor.2012.mHD.BluRay.DD5.1.x 264-EPiK-nusom@HLS.mkv
Format : Matroska
File size : 2.68 GiB
Duration : 2h 2mn
Overall bit rate : 3 141 Kbps
Encoded date : UTC 2012-08-08 03:28:49
Writing application : mkvmerge v3.2.0 ( Beginnings ) built on Feb 12 2010 16:46:17
Writing library : libebml v0.7.9 + libmatroska v0.8.1

Video
ID : 1
Format : AVC
Format/Info : Advanced Video Codec
Format profile : High@L4.1
Format settings , CABAC : Yes
Format settings , ReFrames : 11 frames
Format settings , GOP : M=3 , N=43
Codec ID : V_MPEG4/ISO/AVC
Duration : 2h 2mn
Bit rate : 2 183 Kbps
Width : 1 280 pixels
Height : 544 pixels
Display aspect ratio : 2.35:1
Frame rate : 24.000 fps
Color space : YUV
Chroma subsampling : 4:2:0
Bit depth : 8 bits
Scan type : Progressive
Bits/(Pixel*Frame) : 0.131
Stream size : 1.86 GiB (69%)
Title : The Viral Factor (2012)
Writing library : x264 core 122 r2184 5c85e0a
Encoding settings : cabac=1 / ref=11 / deblock=1:-3:-3 / analyse=0x3:0x113 / me=umh / subme=10 / psy=1 / psy_rd=1.00:0.00 / mixed_ref=1 / me_range=16 / chroma_me=1 / trellis=2 / 8x8dct=1 / cqm=0 / deadzone=21 , 11 / fast_pskip=0 / chroma_qp_offset=-2 / threads=12 / sliced_threads=0 / nr=0 / decimate=0 / interlaced=0 / bluray_compat=0 / constrained_intra=0 / bframes=7 / b_pyramid=2 / b_adapt=2 / b_bias=0 / direct=3 / weightb=1 / open_gop=0 / weightp=2 / keyint=250 / keyint_min=24 / scenecut=40 / intra_refresh=0 / rc_lookahead=40 / rc=crf / mbtree=1 / crf=22.5 / qcomp=0.60 / qpmin=0 / qpmax=69 / qpstep=4 / ip_ratio=1.40 / aq=1:0.70
Language : Chinese
Matrix coefficients : BT.709-5 , BT.1361 , IEC 61966-2-4 709 , SMPTE RP177

Audio #1
ID : 2
Format : AC-3
Format/Info : Audio Coding 3
Mode extension : CM (complete main)
Codec ID : A_AC3
Duration : 2h 2mn
Bit rate mode : Constant
Bit rate : 448 Kbps
Channel(s) : 6 channels
Channel positions : Front: L C R , Side: L R , LFE
Sampling rate : 48.0 KHzหนัง HD |หนัง HD Classic |หนัง 3 มิติ | Full Match HD football |game pc|
โหลดหนังการ์ตูน |โหลดหนังซีรีย์/หนังชุด|รายการทีวี |หนังสือ/สื่อเรียนรู้
Bit depth : 16 bits
Compression mode : Lossy
Stream size : 392 MiB (14%)
Title : DD5.1 448 Kbps
Language : Chinese

Audio #2
ID : 3
Format : AC-3
Format/Info : Audio Coding 3
Mode extension : CM (complete main)
Codec ID : A_AC3
Duration : 2h 2mn
Bit rate mode : Constant
Bit rate : 448 Kbps
Channel(s) : 6 channels
Channel positions : Front: L C R , Side: L R , LFE
Sampling rate : 48.0 KHz
Bit depth : 16 bits
Compression mode : Lossy
Stream size : 392 MiB (14%)
Language : Thai

Text #1
ID : 4
Format : VobSub
Muxing mode : zlib
Codec ID : S_VOBSUB
Codec ID/Info : The same subtitle format used on DVDs
Language : Thai

Text #2
ID : 5
Format : VobSub
Muxing mode : zlib
Codec ID : S_VOBSUB
Codec ID/Info : The same subtitle format used on DVDs
Language : Thai

Text #3
ID : 6
Format : VobSub
Muxing mode : zlib
Codec ID : S_VOBSUB
Codec ID/Info : The same subtitle format used on DVDs
Language : Thai

Text #4
ID : 7
Format : VobSub
Muxing mode : zlib
Codec ID : S_VOBSUB
Codec ID/Info : The same subtitle format used on DVDs
Language : Thai

Text #5
ID : 8
Format : VobSub
Muxing mode : zlib
Codec ID : S_VOBSUB
Codec ID/Info : The same subtitle format used on DVDs
Language : Thai

Text #6
ID : 9
Format : UTF-8
Codec ID : S_TEXT/UTF8
Codec ID/Info : UTF-8 Plain Text
Language : English


General
Unique ID : 223415565617751045401751342080556706295 (0xA81445D556C47565AD7282E14526A9F7)
Complete name : S:completeIron.Sky.2012.1080p.BluRay.x264.DTS-HDChina-nusom@HLS.mkv
Format : Matroska
File size : 10.0 GiB
Duration : 1h 32mn
Overall bit rate : 15.5 Mbps
Movie name : BONDS.Title0.Angle1.BlurayRip
Encoded date : UTC 2012-08-08 09:04:45
Writing application : mkvmerge v3.2.0 ( Beginnings ) built on Feb 12 2010 16:46:17
Writing library : libebml v0.7.9 + libmatroska v0.8.1

Video
ID : 1
Format : AVC
Format/Info : Advanced Video Codec
Format profile : High@L4.1
Format settings , CABAC : Yes
Format settings , ReFrames : 5 frames
Codec ID : V_MPEG4/ISO/AVC
Duration : 1h 32mn
Bit rate : 12.0 Mbps
Width : 1 920 pixels
Height : 816 pixels
Display aspect ratio : 2.35:1
Frame rate : 24.000 fps
Color space : YUV
Chroma subsampling : 4:2:0
Bit depth : 8 bits
Scan type : Progressive
Bits/(Pixel*Frame) : 0.319
Stream size : 7.57 GiB (76%)
Writing library : x264 core 125 r2200 999b753
Encoding settings : cabac=1 / ref=5 / deblock=1:-3:-3 / analyse=0x3:0x113 / me=umh / subme=11 / psy=1 / psy_rd=1.20:0.00 / mixed_ref=1 / me_range=32 / chroma_me=1 / trellis=2 / 8x8dct=1 / cqm=0 / deadzone=21 , 11 / fast_pskip=0 / chroma_qp_offset=-2 / threads=18 / lookahead_threads=3 / sliced_threads=0 / nr=0 / decimate=0 / interlaced=0 / bluray_compat=0 / constrained_intra=0 / bframes=8 / b_pyramid=2 / b_adapt=2 / b_bias=0 / direct=3 / weightb=1 / open_gop=0 / weightp=2 / keyint=240 / keyint_min=24 / scenecut=40 / intra_refresh=0 / rc=2pass / mbtree=0 / bitrate=12000 / ratetol=1.0 / qcomp=0.75 / qpmin=0 / qpmax=69 / qpstep=4 / cplxblur=20.0 / qblur=0.5 / ip_ratio=1.40 / pb_ratio=1.30 / aq=1:0.80
Language : English

Audio #1
ID : 2
Format : DTS
Format/Info : Digital Theater Systems
Codec ID : A_DTS
Duration : 1h 32mn
Bit rate mode : Constant
Bit rate : 1 510 Kbps
Channel(s) : 6 channels
Channel positions : Front: L C R , Side: L R , LFE
Sampling rate : 48.0 KHz
Bit depth : 24 bits
Compression mode : Lossy
Delay relative to video : 11ms
Stream size : 999 MiB (10%)
Language : English

Audio #2
ID : 3
Format : DTS
Format/Info : Digital Theater Systems
Codec ID : A_DTS
Duration : 1h 32mn
Bit rate mode : Constant
Bit rate : 1 510 Kbps
Channel(s) : 6 channels
Channel positions : Front: L C R , Side: L R , LFE
Sampling rate : 48.0 KHz
Bit depth : 24 bits
Compression mode : Lossy
Stream size : 999 MiB (10%)
Title : THAI DTS
Language : Thai

Audio #3
ID : 4
Format : AC-3
Format/Info : Audio Coding 3
Mode extension : CM (complete main)
Codec ID : A_AC3
Duration : 1h 32mn
Bit rate mode : Constant
Bit rate : 448 Kbps
Channel(s) : 6 channels
Channel positions : Front: L C R , Side: L R , LFE
Sampling rate : 48.0 KHz
Bit depth : 16 bits
Compression mode : Lossy
Stream size : 297 MiB (3%)
Language : Thai

Text #1
ID : 5
Format : VobSub
Muxing mode : zlib
Codec ID : S_VOBSUB
Codec ID/Info : The same subtitle format used on DVDs
Language : Thai

Text #2
ID : 6
Format : VobSub
Muxing mode : zlib
Codec ID : S_VOBSUB
Codec ID/Info : The same subtitle format used on DVDs
Language : Thai

Text #3
ID : 7
Format : VobSub
Muxing mode : zlib
Codec ID : S_VOBSUB
Codec ID/Info : The same subtitle format used on DVDs
Language : Thai

Text #4
ID : 8
Format : VobSub
Muxing mode : zlib
Codec ID : S_VOBSUB
Codec ID/Info : The same subtitle format used on DVDs
Language : Thai

Text #5
ID : 9
Format : UTF-8
Codec ID : S_TEXT/UTF8
Codec ID/Info : UTF-8 Plain Text
Title : ENG SRT
Language : English

Menu
00:00:00.000 : en:00:00:00.000
00:11:36.417 : en:00:11:36.417
00:23:03.000 : en:00:23:03.000
00:31:32.083 : en:00:31:32.083
00:44:23.375 : en:00:44:23.375
00:53:33.583 : en:00:53:33.583
01:05:26.167 : en:01:05:26.167
01:13:33.708 : en:01:13:33.708
01:17:51.042 : en:01:17:51.042
01:24:42.417 : en:01:24:42.417




* ซับปรับไว้บนล่างไม่ทับซับไทย



ในช่วงเวลาก่อนที่สงครามโลกครั้งที่สองจะสิ้นสุดลง โครงการอวกาศลับของพวกนาซีได้หลบเลี่ยงจากการถูกทำลา ยด้วยการหนีไปยังอีก ด้านหนึ่งของดวงจันทร์ ระหว่าง 70 ปีที่เร้นกายอย่างลับสุดยอด พวกนาซีได้สร้างปราการอวกาศยักษ์ พร้อมด้วยกองกำลังจานบินมหาศาล ไม่นานนัก กองกำลังโจมตีที่ไม่อาจหยุดยั้งได้นี้ก็จะมุ่งหน้าสู ่โลก และประกาศการกลับมาเยือนอย่างผู้มีชัยของอาณาจักรไรช ์ที่สี่!

เมื่อนักบินอวกาศชาวอเมริกัน เจมส์ วอชิงตันได้จอดยานลูนาร์ แลนเดอร์ของเขาใกล้กับฐานทัพลับนาซีมากเกินไป ท่านผู้นำแห่งดวงจันทร์ก็ตัดสินใจว่าช่วงเวลาแห่งควา มรุ่งโรจน์ของการยึด ครองโลกได้มาถึงเร็วกว่าที่คาดคิดไว้ วอชิงตันอ้างว่าเขาเป็นแค่เพียงนายแบบที่มาทำงานประช าสัมพันธ์ให้กับ ประธานาธิบดีสหรัฐฯ แต่เขาจะเป็นอะไรได้อีกล่ะนอกจากหน่วยสอดแนมสำหรับกอ งกำลังโจมตีจากดาวโลก อาณาจักรไรช์ที่สี่จะต้องลงมือในทันที!

ก่อนที่พวกนาซีจะเริ่มต้นการรุกรานของพวกเขา พวกเขาจะต้องสร้างยานแม่ เครื่องจักรสงครามขนาดมหึมาที่มีชื่อว่า กอทเทอร์แดมรัง ให้เสร็จสมบูรณ์เสียก่อน ในการนี้ พวกเขาต้องการพลังคอมพิวเตอร์จากเทคโนโลยีสมัยใหม่ เหมือนอย่างสมาร์ทโฟนที่เจอในกระเป๋าของวอชิงตัน นายทหารนาซีสองคน คลอส แอดเลอร์ ผู้โหดเหี้ยม และเรเนท ริชเตอร์ ผู้มองโลกในอุดมคติ เดินทางไปยังโลกพร้อมกับวอชิงตันเพื่อนำคอมพิวเตอร์พ วกนี้กลับมา

อย่างไรก็ดี คลอสไม่มีความคิดที่จะกลับไปดวงจันทร์ เขาวางแผนที่จะยึดอำนาจด้วยตัวเอง ขั้นแรกก็ด้วยการเป็นพันธมิตรกับประธานาธิบดีสหรัฐฯ แล้วค่อยยึดบัลลังก์ท่านผู้นำบนดวงจันทร์

แต่เมื่อกองกำลังยูเอฟโอของนาซีดวงจันทร์ได้ปกคลุมน่ านฟ้า เพื่อเตรียมพร้อมโจมตีโลกที่ไม่ทันตั้งรับ ทุกคนทั้งหญิงและชายและทุกประเทศ จะต้องประเมินค่าสิ่งสำคัญที่สุดของพวกเขาเสียใหม่









http://www.filecondo.com/dl.php?f=mf93d21sZqX2